请选择 进入手机版 | 继续访问电脑版
设为首页收藏本站 |繁體中文
查看: 2737|回复: 26

【115网盘 】【TVB1990】【剑魔独孤求败】【全集/国语】【MKV/7.24G】 [复制链接]

Rank: 4Rank: 4Rank: 4Rank: 4

升级  54.95%

UID
11084
阅读权限
40
金钱
2030 充值
帖子
137
积分
2099

五周年纪念勋章

发表于 2014-7-25 00:56:44 |显示全部楼层
[attach]50845[/attach]
中文名:剑魔独孤求败
外文名:Kim Mo Tuk Ku Kau Pai
出品时间:1989年
出品公司:香港电视广播有限公司
制片地区:中国香港
导 演:庄伟建
编 剧:黄国辉
主 演:黄日华,吴岱融,文雪儿,邵美琪
集 数:20
类 型:古装武侠
上映时间:1990年04月01日


剧情简介:
独孤天峰(罗乐林)、严晓青(李丽丽)夫妇与江湖正道人士起冲突而被追杀,天峰被捉, 囚于天山,晓青流落江湖,二人之初生子则被一农家收养,改名林康 。十数年后,林康(黄日华)长大成人,在连番奇遇之后,武功盖世,而天峰亦 逃脱,与晓青重逢,合组天圣教,残杀武林人士报仇,林康率众对抗,父子见面 不相认,拚个你死我活。另一方面,林康与白承忠(吴岱融)之恩怨关系亦引出另一段曲折情节,承忠本乃世家之子,受林康所累,全家惨死,承忠急于报仇, 误入魔道,冒认是天峰之子,投靠天峰,陷害林康。此外,林康、承忠与柳傲霜 (文雪儿)、柳傲雪(蔡嘉利)紫嫣(邵美琪)及江震雄(刘家辉)之一段纠缠不清多角恋爱关系,纠缠不清,结果出人意表……

[attach]50846[/attach][attach]50847[/attach][attach]50848[/attach][attach]50849[/attach][attach]50850[/attach][attach]50851[/attach]
General
Unique ID                      : 242314102557621440901400248906185191636 (0xB64BFFA4A9AA7935AA9E9E530DDC30D4)
Complete name                  : E:\剑魔独孤求败\(光影久久-没有翅膀的鸟)剑魔独孤求败.Kim Mo Tuk Ku Kau Pai.EP01.1990.x264.Ac3.国语中字.mkv
Format                         : Matroska
Format version                 : Version 2
File size                      : 342 MiB
Duration                       : 39mn 46s
Overall bit rate               : 1 201 Kbps
Encoded date                   : UTC 2014-07-16 23:17:15
Writing application            : mkvmerge v5.2.1 ('A Far Off Place') built on Jan  2 2012 23:21:10
Writing library                : libebml v1.2.3 + libmatroska v1.3.0

Video
ID                             : 1
Format                         : AVC
Format/Info                    : Advanced Video Codec
Format profile                 : High@L3.0
Format settings, CABAC         : Yes
Format settings, ReFrames      : 4 frames
Codec ID                       : V_MPEG4/ISO/AVC
Duration                       : 39mn 46s
Bit rate                       : 1 007 Kbps
Width                          : 640 pixels
Height                         : 480 pixels
Display aspect ratio           : 4:3
Frame rate mode                : Constant
Frame rate                     : 25.000 fps
Color space                    : YUV
Chroma subsampling             : 4:2:0
Bit depth                      : 8 bits
Scan type                      : Progressive
Bits/(Pixel*Frame)             : 0.131
Stream size                    : 280 MiB (82%)
Writing library                : x264 core 120 r2164 da19765
Encoding settings              : cabac=1 / ref=3 / deblock=1:2:2 / analyse=0x3:0x113 / me=hex / subme=7 / psy=1 / psy_rd=1.00:0.00 / mixed_ref=1 / me_range=16 / chroma_me=1 / trellis=1 / 8x8dct=1 / cqm=0 / deadzone=21,11 / fast_pskip=1 / chroma_qp_offset=-2 / threads=3 / sliced_threads=0 / nr=0 / decimate=1 / interlaced=0 / bluray_compat=0 / constrained_intra=0 / bframes=3 / b_pyramid=2 / b_adapt=1 / b_bias=0 / direct=1 / weightb=1 / open_gop=0 / weightp=2 / keyint=250 / keyint_min=25 / scenecut=40 / intra_refresh=0 / rc_lookahead=40 / rc=2pass / mbtree=1 / bitrate=1007 / ratetol=1.0 / qcomp=0.60 / qpmin=0 / qpmax=69 / qpstep=4 / cplxblur=20.0 / qblur=0.5 / ip_ratio=1.40 / aq=1:1.00
Default                        : Yes
Forced                         : No

Audio
ID                             : 2
Format                         : AC-3
Format/Info                    : Audio Coding 3
Mode extension                 : CM (complete main)
Format settings, Endianness    : Big
Codec ID                       : A_AC3
Duration                       : 39mn 46s
Bit rate mode                  : Constant
Bit rate                       : 192 Kbps
Channel(s)                     : 2 channels
Channel positions              : Front: L R
Sampling rate                  : 48.0 KHz
Bit depth                      : 16 bits
Compression mode               : Lossy
Stream size                    : 54.6 MiB (16%)
Default                        : Yes
Forced                         : No

运用多种优化设置 大量滤镜 VCD也能这么美


购买主题 已有 30 人购买  本主题需向作者支付 3 金钱 才能浏览
每天飞过一次 防止被人忘记
                      没有翅膀的鸟共享

使用道具 举报

Rank: 7Rank: 7Rank: 7

升级  92.8%

UID
2995
阅读权限
70
金钱
27485 充值
帖子
2862
积分
28920

金牌会员 五周年纪念勋章 银牌会员 光影铁杆勋章 光影侠客勋章 影视精英勋章 铜牌会员

发表于 2014-7-25 08:51:23 |显示全部楼层
能否提供试看一集,这样可以看看效果

使用道具 举报

Rank: 6Rank: 6

升级  5.8%

UID
11389
阅读权限
60
金钱
6699 充值
帖子
3389
积分
8406

五周年纪念勋章 铜牌会员

发表于 2014-7-25 09:04:21 |显示全部楼层
记不清以前是否看过了,先收下再说。

使用道具 举报

Rank: 7Rank: 7Rank: 7

升级  8.69%

UID
12072
阅读权限
70
金钱
12721 充值
帖子
7150
积分
16304

五周年纪念勋章 金牌会员 银牌会员 铜牌会员

发表于 2014-7-25 09:10:16 |显示全部楼层
这个是哪个论坛出品的版本,记得以前收过一个越南版DVD压制的版本!

使用道具 举报

Rank: 4Rank: 4Rank: 4Rank: 4

升级  69.15%

UID
4669
阅读权限
40
金钱
1336 充值
帖子
2085
积分
2383

五周年纪念勋章

发表于 2014-7-25 09:44:25 |显示全部楼层
可惜是国语的!还是坐等粤语原音的吧!谢谢楼主!

使用道具 举报

Rank: 4Rank: 4Rank: 4Rank: 4

升级  53.15%

UID
4380
阅读权限
40
金钱
1506 充值
帖子
657
积分
2063

五周年纪念勋章 Vip勋章

发表于 2014-7-25 12:53:51 |显示全部楼层
吴岱融演的实在太坏了! 黄日华中规中矩

使用道具 举报

Rank: 4Rank: 4Rank: 4Rank: 4

升级  42.05%

UID
3942
阅读权限
40
金钱
305 充值
帖子
3055
积分
1841

五周年纪念勋章

发表于 2014-7-25 14:05:34 |显示全部楼层
够老的电视剧了 黄日华版的还是很精彩的 支持一下

使用道具 举报

Rank: 5

升级  1.4%

UID
11133
阅读权限
50
金钱
2350 充值
帖子
1423
积分
3070

五周年纪念勋章 铜牌会员

发表于 2014-7-25 19:07:28 |显示全部楼层
华哥的电视剧,以前看过,还是很不错的,值得一看

使用道具 举报

Rank: 4Rank: 4Rank: 4Rank: 4

升级  47.3%

UID
13304
阅读权限
40
金钱
1365 充值
帖子
1134
积分
1946
发表于 2014-7-25 19:14:31 |显示全部楼层
多谢你的分享,黄日华的片子,值得一看

使用道具 举报

Rank: 8Rank: 8Rank: 8Rank: 8

升级  21.56%

UID
12123
阅读权限
80
金钱
25032 充值
帖子
22815
积分
36468

五周年纪念勋章 在线王勋章 元老勋章 勤奋王勋章 梦幻勋章 优秀会员 金牌会员 灌水天才勋章 银牌会员 铜牌会员 优秀新人勋章

发表于 2014-7-25 20:47:11 |显示全部楼层
很好看的一部武侠剧,多谢分享呀,下载看看。

使用道具 举报

Rank: 5

升级  21.74%

UID
2704
阅读权限
50
金钱
1680 充值
帖子
5005
积分
4087

五周年纪念勋章

发表于 2014-7-25 22:11:16 |显示全部楼层
这个版本的清晰度怎么样呢,还是华仔的作品好

使用道具 举报

Rank: 6Rank: 6

升级  37.1%

UID
6398
阅读权限
60
金钱
9352 充值
帖子
2485
积分
10597

五周年纪念勋章 铜牌会员

发表于 2014-7-26 00:24:11 |显示全部楼层
感谢分享经典影视,就是不知道清晰度如何,但还是要说声谢谢

使用道具 举报

Rank: 6Rank: 6

升级  16.8%

UID
10413
阅读权限
60
金钱
7826 充值
帖子
2628
积分
9176

五周年纪念勋章 银牌会员 铜牌会员 优秀新人勋章 活动达人

发表于 2014-7-26 08:45:35 |显示全部楼层
很早之前看过一次,不错的片子,值得再看看

使用道具 举报

Rank: 5

升级  1.42%

UID
80
阅读权限
50
金钱
2238 充值
帖子
1637
积分
3071

五周年纪念勋章 铜牌会员 光影铁杆勋章 光影帅哥勋章

发表于 2014-7-26 09:43:52 |显示全部楼层
看过了 感觉不是太好 人物有点太少了

使用道具 举报

Rank: 8Rank: 8Rank: 8Rank: 8

升级  72.5%

UID
12951
阅读权限
80
金钱
31417 充值
帖子
40638
积分
51750

梦幻勋章 在线王勋章 元老勋章 五周年纪念勋章 优秀会员 金牌会员 灌水天才勋章 银牌会员 铜牌会员

发表于 2014-7-26 10:22:46 |显示全部楼层
黄日华的电视剧很不错,这是VCD压制的?

使用道具 举报

您需要登录后才可以回帖 登录 | 论坛注册

关闭

友情推荐

【特別奉獻】大馬甲超版抄底大分享
【特別奉獻】大馬甲超版抄底大分享
大馬甲超版多年收藏,抄底大分享,只為答謝大家多年的額支持和關注。請關注[DVD原盤分享],支持光影久久......

查看 »

关于我们|光影久久华语电影资料库 ( 粤ICP备10240225号 )   联系管理员

GMT+8, 2024-3-1 23:35 , Processed in 0.823133 second(s), 33 queries , Gzip On.

Powered by Discuz! X2 Licensed Theme by Admin987.com

© 2001-2011 Comsenz Inc.

回顶部